Witaj Gościu! jeżeli widzisz ten dymek to znaczy że nie jesteś zarejestrowany/zalogowany. Kliknij by się zarejestrować. Rejestracja zajmie mniej niż 30 sekund, a dzięki niej zyskasz możliwość pobierania, komentowania oraz dodawania torrentów !



User:      Hasło:     

MENU


Kategorie
Sitemap


FACEBOOK


PROGRAMY


Torrent: Nalot/Air Strike (2018)[WEBRip 1080p x264 by alE13 & Kis AC3][Napisy PL/Eng][Eng]
Dodał:  alE13
Data: 30-10-2018
Rozmiar: 7.71 GB
Seed: 14
Peer: 19
Kondycja:
Zaloguj się aby pobrać


Kategoria:  Filmy BluRay/HDTV 1080p
Gatunek: Akcja / Sensacyjny
Zaakceptował: zibi6248
Liczba pobrań: 36
Liczba komentarzy: 0
Ostatnia aktualizacja: 2018-11-01 14:07:18

OPIS:





http://www.imdb.com/title/tt4743226/

Plik zawiera sample.

premiera:       26-10-2018
produkcja:      China, USA
reżyseria:      Xiao Feng
scenariusz:     Ping Chen, Tie Dong Zhou
gatunek:        Akcja, Wojenny, Dramat
czas:           01:36:48



During World War II, five different Chinese people fight their way through Japanese Air Force
attacks to protect an important military machine in Chongqing, 1940.

Air Strike to chińska produkcja historyczna o budżecie 65 mln dolarów. Osadzona jest
w czasie II wojny światowej i opowiada o walce chińskich pilotów z japońskimi najeźdźcami.
Bohaterowie są szkoleni przez amerykańskiego oficera, którego gra Bruce Willis. W tym samym
czasie grupa szpiegów i uchodźców musi przetransportować urządzenie dekodujące, które może
zmienić oblicze wojny.

more:

http://naekranie.pl/aktualnosci/air-strike-film-bez-premiery-w-chinach-powodem-oszustwa-finansowe-3647807














Ye Liu, Bruce Willis, Adrien Brody, Bingbing Fan, Seung-heon Song



Air Strike (201-alE13 & Kis.mkv
Format                      : Matroska
Format version              : Version 4 / Version 2
File size                   : 7.64 GiB
Duration                    : 1 h 36 min
Overall bit rate            : 11.3 Mb/s
Movie name                  : Air Strike (201-alE13 & Kis
Encoded date                : UTC 2018-10-30 10:28:56
Writing application         : mkvmerge v8.1.0 ('Psychedelic Postcard' 64bit
Writing library             : libebml v1.3.1 + libmatroska v1.4.2
Cover                       : Yes
Attachments                 : Cover.jpg

Video
ID                          : 1
Format                      : AVC
Format/Info                 : Advanced Video Codec
Format profile              : High@L4.1
Format settings             : CABAC / 2 Ref Frames
Format settings, CABAC      : Yes
Format settings, ReFrames   : 2 frames
Codec ID                    : V_MPEG4/ISO/AVC
Duration                    : 1 h 36 min
Bit rate                    : 10.7 Mb/s
Width                       : 1 908 pixels
Height                      : 792 pixels
Display aspect ratio        : 2.40:1
Frame rate mode             : Constant
Frame rate                  : 23.976 (24000/1001) FPS
Color space                 : YUV
Chroma subsampling          : 4:2:0
Bit depth                   : 8 bits
Scan type                   : Progressive
Bits/(Pixel*Frame)          : 0.294
Stream size                 : 7.20 GiB (94%)
Title                       : Air Strike (201-alE13 & Kis
Writing library             : x264 core 142
Default                     : Yes
Forced                      : No
Color range                 : Limited
Color primaries             : BT.709
Transfer characteristics    : BT.709
Matrix coefficients         : BT.709

Audio
ID                          : 2
Format                      : AC-3
Format/Info                 : Audio Coding 3
Codec ID                    : A_AC3
Duration                    : 1 h 36 min
Bit rate mode               : Constant
Bit rate                    : 640 kb/s
Channel(s)                  : 6 channels
Channel positions           : Front: L C R, Side: L R, LFE
Sampling rate               : 48.0 kHz
Frame rate                  : 31.250 FPS (1536 SPF)
Bit depth                   : 16 bits
Compression mode            : Lossy
Stream size                 : 443 MiB (6%)
Title                       : Air Strike (201-alE13 & Kis
Language                    : English
Service kind                : Complete Main
Default                     : No
Forced                      : No

Text #1
ID                          : 3
Format                      : UTF-8
Codec ID                    : S_TEXT/UTF8
Codec ID/Info               : UTF-8 Plain Text
Duration                    : 1 h 26 min
Bit rate                    : 91 b/s
Count of elements           : 844
Stream size                 : 58.6 KiB (0%)
Title                       : Air Strike (201-alE13 & Kis_colored
Language                    : Polish
Default                     : Yes
Forced                      : No

Text #2
ID                          : 4
Format                      : UTF-8
Codec ID                    : S_TEXT/UTF8
Codec ID/Info               : UTF-8 Plain Text
Duration                    : 1 h 26 min
Bit rate                    : 38 b/s
Count of elements           : 859
Stream size                 : 24.5 KiB (0%)
Title                       : Air Strike (201-alE13 & Kis
Language                    : English
Default                     : No
Forced                      : No

Menu
00:00:00.000                : en:1
00:01:52.000                : en:2
00:12:01.000                : en:3
00:21:37.000                : en:4
00:32:36.000                : en:5
00:42:23.000                : en:6
00:52:30.000                : en:7
01:01:55.000                : en:8
01:13:21.000                : en:9
01:23:06.000                : en:10
01:28:33.000                : en:11

DETALE TORRENTA:[ ]
PodziękowaniaNikt jeszcze nie podziękował.
 


Podobne pliki
Nie znaleziono podobnych tytułów!


Komentarze